logo

Most viewed

Gratis online russland voksen dating tjenester

Dein Name, username muss zwischen 2-50 Zeichen lang sein.Willkommen bei unserer kostenlosen Online-Partnersuche.Larisa, 50, Russian Federation, Rostov-na-Donu, olga, 37, Belarus, lana, 44, Belarus.Austria, Wien, czech Republic, Cheska Skalice, china, Yancheng.Bereit, in dem du fortfährst, akzeptierst du die Bedingungen die Vereinbarung.Anna 24 years old, russian Federation, marina 28 years


Read more

Kvinner får vite kaiserslautern

Fastrente, den faste renten ligger på en på forhånd bestemt prosent, og endrer seg ikke i engelsk kvinner data løpet av nedbetalingstiden.Her lærer man alt det grunnleggende man behøver å vite om salg og kjøp av bolig, samtidig som man får en grundig innføring i det gjeldende lov


Read more

Sex offender nettstedet i texas

Then, each local law enforcement agency is able to publish and distribute sex offender information to their residents in newspapers.Moderate level offenders may continue to commit sexually motivated offenses and high level offenders will most likely commit another sexual offense.Sam recommends that families keep track of sex offenders


Read more

Lagre bond forfall datoer




lagre bond forfall datoer

Harp sex offenders registrere søk Boogie II (wbcn '72) 0:56.
Hobo Chang Ba 2:02.Suction Prints 4:25.Ashtray Heart 3:25.Clear Spot 3:40.Orange Claw Hammer 3:34.Captain Beefheart His Magic Band - minnesota registrert sex offenders søk Hobo Chang.Captain Beefheart His Magic Band - untitled.wav Peak level.9 Track quality.9 Test CRC F4E14A0B Copy CRC F4E14A0B Accurately west sussex skolen sikt dato ripped (confidence 1) 2838A3A6 Copy OK Track 8 Filename D:MP3sRather Rippedflacs08.Lazy Music Captain Beefheart And The Magic Band.wav Pre-gap length 0:00:02.10 Peak level.5 Track quality 100.0 Copy CRC A1BA8635 Copy OK Track 10 Filename D flacCaptain Beefheart And The Magic Band.Grow Fins 3:30.Captain Beefheart the Magic Band - Mellotron Improv - (Live, 1980).wav Peak level.9 Track quality 100.0 Test CRC 423B1CBA Copy CRC 423B1CBA Accurately ripped (confidence 1) 97945DC9 Copy OK Track 23 Filename D:MP3sRather Rippedflacs23.Captain Beefheart His Magic Band - When Big Joan Sets.Wav Peak level.0 Track quality 100.0 Test CRC E0443228 Copy CRC E0443228 Accurately ripped (confidence 1) 1EE45DBA Copy OK Track 10 Filename D:MP3sRather Rippedflacs10.Wav Peak level.1 Track quality 100.0 Test CRC F71A9F17 Copy CRC F71A9F17 Accurately ripped (confidence 1) 2633F534 Copy OK Track 4 Filename D:MP3sRather Rippedflacs04.Bellerin Plain (live 'Detroit Tubeworks' 1971) 3:26.Captain Beefheart His Magic Band - untitled.wav Peak level.8 Track quality.7 Test CRC 2714B801 Copy CRC 2714B801 Accurately ripped (confidence 1) F513C0AA Copy OK Track 23 Filename D:MP3sRather Rippedflacs23.Captain Beefheart the Magic Band - Woe Is Uh Me Bop - (Live, 1971).wav Peak level.9 Track quality 100.0 Test CRC B0982D25 Copy CRC B0982D25 Accurately ripped (confidence 1) 8FB8C5B0 Copy OK Track 4 Filename D:MP3sRather Rippedflacs04.
Blabber 'n Smoke 2:46 (Lyrics by Jan Van Vliet).
Captain Beefheart His Magic Band - Steal Softly Through Snow.
Wav Peak level.0 Track quality.9 Test CRC E029896C Copy CRC E029896C Accurately ripped (confidence 1) 670A9DB2 Copy OK Track 13 Filename D:MP3sRather Rippedflacs13.
Upon the Me on.
Captain Beefheart the Magic Band - Natchez Burning - (1972 Radio).wav Peak level.8 Track quality 100.0 Test CRC Copy CRC Accurately ripped (confidence 1) 863feab9 Copy OK Track 13 Filename D:MP3sRather Rippedflacs13.I'm Gonna Booglarize You Baby 4:33.Captain Beefheart the Magic Band - Odd Jobs - (1975 Piano Demo).wav Peak level.0 Track quality 100.0 Test CRC 199C895F Copy CRC 199C895F Accurately ripped (confidence 1) C07E7373 Copy OK Track 17 Filename D:MP3sRather Rippedflacs17.She's Too Much for My Mirror 1:30.Herb Alpert 1:07.The Witch Doctor Life 2:38.Trust Us (Take 6) 7:14.Safe as Milk 5:27.The Buggy Boogie Woogie 2:19.New Electric Ride.





There Ain't No Santa Claus on the Evenin' Stage 3:11.
Septic tank 0:51.
Skeleton Makes Good 2:18.

[L_RANDNUM-10-999]

Top news

Autres restaurant A proximité.Type, price per Day, days.The Cheapest Rental Cars in, hockley, railway and surrounding areas that our customers are securing are: Vehicle.L'établissement est listé dans la catégorie restaurant du guide geodruid hockley 2019.You could save up to 40 percent on our best price rental cars.Our Add-on..
Read more
Here we have a huge database filled with sexy shemales who love to show you what they have to offer.1 week ago 07:22 xHamster solo, big ass, shemale, ass, lingerie, masturbation, ladyboy Another pleasure time with Nicky Yesterday 02:45 AShemaleTube shemale, ladyboy, asian, blowjob, bareback, amateur Brainwashed M2F..
Read more
These sites contain sexually explicit material.Enter only if you are over.We are not an escort agency.Du kan finne dem ved å søke på siden her.Continue or leave the site * This website is a platform for user submitted Advertisements, which we present for informational purposes only.På Escort46 kan..
Read more
Sitemap